osu file format v14

[General]
AudioFilename: Liberating.mp3
AudioLeadIn: 1500
PreviewTime: 68752
Countdown: 0
SampleSet: Soft
StackLeniency: 0.7
Mode: 0
LetterboxInBreaks: 0
WidescreenStoryboard: 1

[Editor]
DistanceSpacing: 1.2
BeatDivisor: 4
GridSize: 32
TimelineZoom: 1

[Metadata]
Title:Liberating
TitleUnicode:Liberating
Artist:Tenmon/Eiichiro Yanagi
ArtistUnicode:天門/柳英一郎
Creator:Wafu
Version:Easy
Source:eden*
Tags:minori calm chill
BeatmapID:756501
BeatmapSetID:341991

[Difficulty]
HPDrainRate:1
CircleSize:3
OverallDifficulty:1
ApproachRate:1
SliderMultiplier:0.9
SliderTickRate:2

[Events]
//Background and Video events
0,0,"watching1.jpg",0,0
//Break Periods
//Storyboard Layer 0 (Background)
//Storyboard Layer 1 (Fail)
//Storyboard Layer 2 (Pass)
//Storyboard Layer 3 (Foreground)
//Storyboard Sound Samples

[TimingPoints]
170,952.380952380952,4,2,1,20,1,0
1122,-100,4,2,4,20,0,0
1360,-100,4,2,1,20,0,0
8741,-100,4,2,4,20,0,0
8979,-100,4,2,1,20,0,0
13979,-100,4,2,2,20,0,0
14217,-100,4,2,1,20,0,0
16360,-100,4,2,4,20,0,0
16598,-100,4,2,1,20,0,0
23979,-100,4,2,4,20,0,0
24217,-100,4,2,1,20,0,0
31598,-100,4,2,4,20,0,0
31836,-100,4,2,1,20,0,0
34455,-100,4,2,1,30,0,0
34931,-100,4,2,2,30,0,0
35169,-100,4,2,1,30,0,0
38741,-100,4,2,2,30,0,0
38979,-100,4,2,3,30,0,0
39455,-100,4,2,1,30,0,0
42550,-100,4,2,2,30,0,0
42789,-100,4,2,1,30,0,0
44455,-100,4,2,2,30,0,0
44693,-100,4,2,1,30,0,0
46360,-100,4,2,2,30,0,0
46598,-100,4,2,3,30,0,0
47074,-100,4,2,1,30,0,0
50169,-100,4,2,2,30,0,0
50408,-100,4,2,1,30,0,0
53979,-100,4,2,2,30,0,0
54217,-100,4,2,3,30,0,0
54693,-100,4,2,1,30,0,0
61598,-100,4,2,2,30,0,0
61836,-100,4,2,3,30,0,0
62312,-100,4,2,1,30,0,0
65408,-100,4,2,2,30,0,0
65646,-100,4,2,3,30,0,0
66122,-100,4,2,1,30,0,0
69217,-100,4,2,2,30,0,0
69455,-100,4,2,1,30,0,0
71122,-100,4,2,2,30,0,0
71360,-100,4,2,1,30,0,0
73027,-100,4,2,2,30,0,0
73265,-100,4,2,3,30,0,0
73741,-100,4,2,1,30,0,0
76836,-100,4,2,2,30,0,0
77074,-100,4,2,1,30,0,0
80646,-100,4,2,2,30,0,0
80884,-100,4,2,3,30,0,0
81360,-100,4,2,1,30,0,0
84455,-100,4,2,2,30,0,0
84693,-100,4,2,1,30,0,0
86360,-100,4,2,2,30,0,0
86598,-100,4,2,1,30,0,0
88265,-100,4,2,2,30,0,0
88503,-100,4,2,3,30,0,0
88979,-100,4,2,1,30,0,0
92074,-100,4,2,2,30,0,0
92312,-100,4,2,1,30,0,0
95884,-100,4,2,2,30,0,0
96122,-100,4,2,3,30,0,0
96598,-100,4,2,1,30,0,0
99217,-100,4,2,1,35,0,0
99693,-100,4,2,2,35,0,0
99931,-100,4,2,3,35,0,0
100408,-100,4,2,1,35,0,0
103503,-100,4,2,2,35,0,0
103741,-100,4,2,1,35,0,0
105408,-100,4,2,2,35,0,0
105646,-100,4,2,1,35,0,0
107312,-100,4,2,2,35,0,0
107550,-100,4,2,3,35,0,0
108027,-100,4,2,1,35,0,0
111122,-100,4,2,2,35,0,0
111360,-100,4,2,1,35,0,0
114931,-100,4,2,2,35,0,0
115169,-100,4,2,1,35,0,0
116836,-100,4,2,2,35,0,0
117074,-100,4,2,1,35,0,0
118741,-100,4,2,2,35,0,0
118979,-100,4,2,3,35,0,0
119455,-100,4,2,1,35,0,0
122550,-100,4,2,2,35,0,0
122789,-100,4,2,1,35,0,0
126360,-100,4,2,2,35,0,0
126598,-100,4,2,3,35,0,0
127074,-100,4,2,1,35,0,0
130169,-100,4,2,2,35,0,0
130408,-100,4,2,1,35,0,0
132074,-100,4,2,2,35,0,0
132312,-100,4,2,1,35,0,0
133503,-100,4,2,1,30,0,0
133979,-100,4,2,2,30,0,0
134217,-100,4,2,1,30,0,0
137789,-100,4,2,2,30,0,0
138027,-100,4,2,3,30,0,0
138503,-100,4,2,1,30,0,0
141598,-100,4,2,2,30,0,0
141836,-100,4,2,1,30,0,0
145408,-100,4,2,2,30,0,0
145646,-100,4,2,1,30,0,0
148979,-100,4,2,1,20,0,0
150646,-100,4,2,1,15,0,0
152550,-100,4,2,1,10,0,0
154455,-100,4,2,1,5,0,0

[Colours]
Combo1 : 240,183,203
Combo2 : 0,155,249
Combo3 : 146,242,248
Combo4 : 107,218,116
Combo5 : 157,255,157
Combo6 : 245,133,31
Combo7 : 255,193,132
Combo8 : 224,109,150

[HitObjects]
463,94,170,6,0,B|513:134|518:207|477:253,1,180,6|2,0:0|0:0,0:0:0:0:
390,319,3027,1,10,0:1:0:0:
282,307,3979,6,0,L|192:316,2,90,6|10|2,0:0|0:1|0:0,0:0:0:0:
348,221,6836,1,10,0:1:0:0:
283,134,7789,6,0,B|242:111|199:133|199:133|153:157|110:134,1,180,6|2,0:0|0:0,0:0:0:0:
40,52,10646,1,10,0:1:0:0:
8,155,11598,6,0,L|14:257,1,90,6|10,0:0|0:1,0:0:0:0:
65,339,13503,2,0,B|96:345|127:336|149:318,1,90,2|10,0:0|0:1,0:0:0:0:
225,241,15408,70,0,L|210:61,1,180,6|2,0:0|0:0,0:0:0:0:
305,11,18265,1,10,0:1:0:0:
400,59,19217,6,0,B|415:87|417:118|408:146,2,90,6|10|2,0:0|0:1|0:0,0:0:0:0:
305,11,22074,1,10,0:1:0:0:
231,90,23027,6,0,B|190:113|147:91|147:91|101:67|58:90,1,180,6|2,0:0|0:0,0:0:0:0:
98,190,25884,1,10,0:1:0:0:
38,279,26836,6,0,L|42:368,2,90,6|10|2,0:0|0:1|0:0,0:0:0:0:
98,190,29693,1,10,0:1:0:0:
151,283,30646,70,0,B|178:325|230:340|277:323|303:288,1,180,6|2,0:0|0:0,0:0:0:0:
344,186,33503,1,10,0:1:0:0:
262,114,34455,6,0,B|252:84|258:53|273:28,2,90,6|10|6,0:0|0:0|0:0,0:0:0:0:
344,186,37312,1,10,0:0:0:0:
293,281,38265,70,0,B|227:301|227:301|116:296,1,180,6|6,0:0|0:0,0:0:0:0:
45,215,41122,1,10,0:0:0:0:
127,145,42074,6,0,B|137:114|128:82|107:61,1,90,6|10,0:0|0:0,0:0:0:0:
26,132,43979,2,0,B|15:162|24:194|45:215,1,90,6|10,0:0|0:0,0:0:0:0:
146,250,45884,6,0,L|325:235,1,180,6|6,0:0|0:0,0:0:0:0:
393,151,48741,1,10,0:0:0:0:
305,85,49693,6,0,B|277:70|246:69|219:79,2,90,6|10|6,0:0|0:0|0:0,0:0:0:0:
393,151,52550,1,10,0:0:0:0:
340,245,53503,70,0,B|301:271|256:253|256:253|208:233|167:260,1,180,6|6,0:0|0:0,0:0:0:0:
101,344,56360,1,10,0:0:0:0:
30,262,57312,6,0,B|18:232|21:200|36:175,2,90,6|10|6,0:0|0:0|0:0,0:0:0:0:
101,344,60169,1,10,0:0:0:0:
172,263,61122,6,0,B|222:222|294:230|334:276,1,180,6|6,0:0|0:0,0:0:0:0:
403,361,63979,1,10,0:0:0:0:
453,265,64931,6,0,L|441:85,1,180,6|6,0:0|0:0,0:0:0:0:
345,35,67789,1,10,0:0:0:0:
275,118,68741,6,0,B|245:129|215:128|187:119,1,90,6|10,0:0|0:0,0:0:0:0:
100,56,70646,2,0,B|70:44|39:46|12:57,1,90,6|10,0:0|0:0,0:0:0:0:
58,155,72550,6,0,L|65:334,1,180,6|6,0:0|0:0,0:0:0:0:
169,366,75408,1,10,0:0:0:0:
255,300,76360,70,0,B|283:285|316:287|341:303,1,90,6|10,0:0|0:0,0:0:0:0:
427,368,78265,1,6,0:0:0:0:
490,281,79217,1,10,0:0:0:0:
439,185,80169,6,0,B|385:150|318:155|271:190,1,180,6|6,0:0|0:0,0:0:0:0:
211,282,83027,1,10,0:0:0:0:
111,240,83979,6,0,L|101:150,1,90,6|10,0:0|0:0,0:0:0:0:
173,69,85884,2,0,B|201:53|233:52|260:62,1,90,6|10,0:0|0:0,0:0:0:0:
357,109,87789,6,0,L|367:288,1,180,6|6,0:0|0:0,0:0:0:0:
280,353,90646,1,10,0:0:0:0:
182,304,91598,38,0,B|165:277|162:246|171:218,1,90,6|10,0:0|0:0,0:0:0:0:
221,122,93503,1,6,0:0:0:0:
323,154,94455,1,10,0:0:0:0:
429,177,95408,6,0,B|417:240|352:277|292:257,1,180,6|6,0:0|0:0,0:0:0:0:
197,205,98265,1,10,0:0:0:0:
157,104,99217,6,0,B|198:81|241:103|241:103|287:127|330:104,1,180,6|6,0:0|0:0,0:0:0:0:
416,40,102074,1,10,0:0:0:0:
435,146,103027,6,0,L|431:236,1,90,6|10,0:0|0:0,0:0:0:0:
363,320,104931,2,0,B|334:334|303:336|276:328,1,90,6|10,0:0|0:0,0:0:0:0:
190,261,106836,38,0,B|177:190|177:190|187:82,1,180,6|6,0:0|0:0,0:0:0:0:
283,32,109693,1,10,0:0:0:0:
365,102,110646,6,0,B|395:112|426:108|451:94,2,90,6|10|6,0:0|0:0|0:0,0:0:0:0:
283,32,113503,1,10,0:0:0:0:
202,104,114455,102,0,L|112:109,1,90,6|10,0:0|0:0,0:0:0:0:
95,216,116360,2,0,L|184:210,1,90,6|10,0:0|0:0,0:0:0:0:
291,201,118265,6,0,B|331:232|344:284|327:331|293:358,1,180,6|6,0:0|0:0,0:0:0:0:
218,281,121122,1,10,0:0:0:0:
122,330,122074,102,0,B|81:336|81:336|33:326,2,90,6|10|6,0:0|0:0|0:0,0:0:0:0:
218,281,124931,1,10,0:0:0:0:
293,204,125884,6,0,B|318:156|307:99|269:61|224:49,1,180,6|6,0:0|0:0,0:0:0:0:
130,37,128741,1,10,0:0:0:0:
71,127,129693,102,0,L|78:216,1,90,6|10,0:0|0:0,0:0:0:0:
148,299,131598,2,0,B|178:309|210:303|234:287,1,90,6|10,0:0|0:0,0:0:0:0:
312,213,133503,54,0,B|338:195|370:192|398:201,2,90,6|10|6,0:0|0:0|0:0,0:0:0:0:
234,288,136360,1,10,0:0:0:0:
137,239,137312,6,0,B|114:197|136:154|136:154|160:108|137:65,1,180,6|6,0:0|0:0,0:0:0:0:
37,106,140169,1,10,0:0:0:0:
20,212,141122,102,0,L|29:301,1,90,6|10,0:0|0:0,0:0:0:0:
125,350,143027,1,6,0:0:0:0:
209,283,143979,1,10,0:0:0:0:
302,229,144931,6,0,B|332:217|364:220|389:235,2,90,6|10|6,0:0|0:0|0:0,0:0:0:0:
209,283,147789,1,10,0:0:0:0:
174,180,148741,101,6,0:0:0:0:
256,192,148979,12,0,156360,0:0:0:0:
